Skip to main content

Ween Live at Delaware Canal State Park on 2005-07-16

by Ween



intro, Buckingham Green, The Stallion pt3, Now I'm Freaking Out, Don't Get Too Close (2 My Fantasy), Take Me Away, Freedom of '76, Mister Richard Smoker, Roses are Free, Happy Colored Marbles, Back to Basom, Touch My Tooter, Mister Would You Please Help My Pony?, I Can't Put My Finger On It, intro, Pork Roll Egg & Cheese, Transdermal Celebration, Zoloft, The Mollusk, Pandy Fackler, Dr. Rock, Fat Lenny


Collection Ween
Band/Artist Ween
Date July 16, 2005
Venue Delaware Canal State Park
Location New Hope, PA

Source schoeps mk4v > vms02ib > edirol r4 (24/96)
Lineage soundforge 8.0 (dither, downsample, recomposition, tracking) > shntool > flac
Taped by pwk
Transferred by pwk


Notes

disk one
1 intro
2 Buckingham Green
3 The Stallion pt3
4 Now I'm Freaking Out
5 Don't Get Too Close (2 My Fantasy)
6 Take Me Away
7 Freedom of '76
8 Mister Richard Smoker
9 Roses are Free
10 Happy Colored Marbles
11 Back to Basom
12 Touch My Tooter
13 Mister, Would You Please Help My Pony?
14 I Can't Put My Finger On It
Disc 1 Total: 57:01.10

disk two
1 intro
2 Pork Roll Egg & Cheese
3 Transdermal Celebration
4 Zoloft
5 The Mollusk
6 Pandy Fackler
7 Dr. Rock
8 Fat Lenny
Disc 2 Total: 35:50.55

Recorded & seeded by pedro (sleepypedro@yahoo.com)

24-bit fileset available here: http://www.archive.org/details/ween2005-07-16-mk4v-flac24

three cheers for the return of ween!

Shntool Results

length expanded size cdr WAVE problems filename
1:15.56 13361756 --- -- ---xx ween2005-07-17-mk4v-d1t01.flac
4:39.61 49359116 --- -- ---xx ween2005-07-17-mk4v-d1t02.flac
3:39.27 38695148 --- -- ---xx ween2005-07-17-mk4v-d1t03.flac
3:29.12 36895868 --- -- ---xx ween2005-07-17-mk4v-d1t04.flac
3:53.73 41272940 --- -- ---xx ween2005-07-17-mk4v-d1t05.flac
4:01.26 42573596 --- -- ---xx ween2005-07-17-mk4v-d1t06.flac
3:48.10 40242764 --- -- ---xx ween2005-07-17-mk4v-d1t07.flac
3:22.10 35656364 --- -- ---xx ween2005-07-17-mk4v-d1t08.flac
7:30.09 79401212 --- -- ---xx ween2005-07-17-mk4v-d1t09.flac
5:36.36 59355116 --- -- ---xx ween2005-07-17-mk4v-d1t10.flac
3:53.02 41105948 --- -- ---xx ween2005-07-17-mk4v-d1t11.flac
3:54.57 41411708 --- -- ---xx ween2005-07-17-mk4v-d1t12.flac
3:03.07 32297708 --- -- ---xx ween2005-07-17-mk4v-d1t13.flac
4:53.74 51859292 --- -- ---xx ween2005-07-17-mk4v-d1t14.flac
0:25.02 4414748 --- -- ---xx ween2005-07-17-mk4v-d2t01.flac
3:19.69 35265932 --- -- ---xx ween2005-07-17-mk4v-d2t02.flac
3:46.39 39958172 --- -- ---xx ween2005-07-17-mk4v-d2t03.flac
7:19.39 77531372 --- -- ---xx ween2005-07-17-mk4v-d2t04.flac
3:45.74 39864092 --- -- ---xx ween2005-07-17-mk4v-d2t05.flac
7:00.56 74219756 --- -- ---xx ween2005-07-17-mk4v-d2t06.flac
3:55.44 41557532 --- -- ---xx ween2005-07-17-mk4v-d2t07.flac
6:17.32 66578108 --- -- ---xx ween2005-07-17-mk4v-d2t08.flac
92:51.65 982878248 B (totals for 22 files, 0.4998 overall compression ratio)

originally seeded here- http://bt.etree.org/details.php?id=16304

Reviews

Reviewer: iriedancer - - March 3, 2006
Subject: This show was hot!!
I remember my friend calling me at 10am this Saturday telling me to get my ass out of bed, there was a free Ween show being played in New Hope. This show was great. My friend wound up climbing on the roof of the canal bridge to get a better view. About 10 minutes later there were about 15 people up there. We also got some pizza delivered, so we had a picnic and Ween! What a great way to spend a Saturday afternoon. My only complaint is that they couldn't really get all that crazy, there were families and stuff wondering around. Other than that it is probally one of my most favorite Ween shows that I have been to.
Reviewer: Randothemusicmando - - January 16, 2006
Subject: Props To Archive
Thank you for hosting some ween it fucking rocks. This show sounds great... well duh it's ween, when doenst it sound great.
Reviewer: cheezhed - - January 11, 2006
Subject: fuck yeah
this is great that ween is back. hell yeah.
Reviewer: morst - - January 5, 2006
Subject: THEY'RE BACK! WOOHOO!
They're back and they sound great!

Great show,great tape, five stars!!!!!

*****
Download Options
42.5M
64KBPS M3U
42.5M
64KBPS MP3
42.5M
64KBPS MP3 ZIP
468.5M
FLAC
86.1M
OGG VORBIS
4.6K
TEXT
47.0K
TORRENT
256.5M
VBR M3U
256.5M
VBR MP3
130.6M
VBR ZIP
In Collection
Ween
In Collection
Live Music Archive
Uploaded by
morst
on 1/5/2006
Views
66,193
Favorites
12
Reviews
4
PEOPLE ALSO FOUND
Ween
by Ween
484
3
0
Source: schoeps mk4v > vms02ib > edirol r4 (24/96)
Ween
by Ween
8,295
6
1
( 1 reviews )
Source: Neumann KM140's > DAT
Ween
by Ween
66,193
12
4
( 4 reviews )
Source: schoeps mk4v > vms02ib > edirol r4 (24/96)
Ween
by Ween
73,055
22
14
( 14 reviews )
Backyard Tire Fire
by Backyard Tire Fire
2,394
1
0
Source: KM140's > Lunatec V3 > + SBD > Edirol R44 @24-bit/48kHz
Backyard Tire Fire
by Backyard Tire Fire
2,454
1
0
Source: Neumann KM140's > Beyer MV100 > Zoom H2 @24-bit/48kHz WAV, mics on 8' stand in back of room
Community Audio
by Vladimir Noskov
10
1
0
The Loyal Scam
by The Loyal Scam
26
2
0
Source: KM140s > Beyer MV100 > PCM-M10
Miles Nielsen
by Miles Nielsen
155
1
0
Source: SBD + Audience 4-channel post-production matrix mix
Mother Hips
by Mother Hips
206
1
0
Source: AUD